Главная Торренты Топ Раздач Форум Правила Чат XXX

Привет, гость

Логин:

Пароль:



Регистрация Восстановление пароля

 Торренты



:: Детали релиза
Скачать
Скачать Chernyiy.yaschik.2021.BDRip.720p.ELEKTRI4KA.UNIONGANG.mkv.torrent
Название
Скачать
Мультитрекерная раздача

Золотой торрент Черный ящик / Boite noire / Black Box (2021) BDRip 720p | D | КиноПоиск HD

ТипТриллер
Хэш релизаc4924ef9a515123e623ba0bc11d83500c8332d88
Проверено
Этот торрент проверен Администрацией.
Изображение для Черный ящик / Boite noire / Black Box (2021) BDRip 720p | D | КиноПоиск HD (кликните для просмотра полного изображения)
Скриншоты, кадры (Посмотреть)
Изображение для Черный ящик / Boite noire / Black Box (2021) BDRip 720p | D | КиноПоиск HD (кликните для просмотра полного изображения)
Изображение для Черный ящик / Boite noire / Black Box (2021) BDRip 720p | D | КиноПоиск HD (кликните для просмотра полного изображения)
Изображение для Черный ящик / Boite noire / Black Box (2021) BDRip 720p | D | КиноПоиск HD (кликните для просмотра полного изображения)
Изображение для Черный ящик / Boite noire / Black Box (2021) BDRip 720p | D | КиноПоиск HD (кликните для просмотра полного изображения)
Информация о фильме
Название: Черный ящик
Оригинальное название: Boite noire / Black Box
Год выпуска: 2021
Жанр: Триллер, драма, детектив
Режиссер: Ян Гозлан
В ролях: Пьер Нинэ, Лу де Лааж, Андре Дюссолье, Себастьен Пудеру, Оливье Рабурден, Гийом Марке, Мехди Джаади, Энн Азулай, Орельен Рекуан, Грегори Деранжер, Андре Маркон, Октав Боссюэ, Мари Домпнье, Филипп Майма, Борис Равен

Описание: Крушение новейшего авиалайнера уносит жизни сотен людей. Пролить свет на причины катастрофы может только расшифровка чёрного ящика. Расследование возглавляет талантливый и эксцентричный аналитик Матьё с уникальным слухом. Чем дальше он продвигается на своем пути, тем больше обнаруживает подозрительных обстоятельств. Но никто не верит Матьё. Так может это всего лишь изощрённые игры его разума?

image

Выпущено: Франция, Бельгия
Продолжительность: 02:09:43
Перевод: Дублированный | КиноПоиск HD

Файл
Формат: MKV
Качество: BDRip
Видео: MPEG-4 AVC, 6291 Кбит/с, 1280x532, 24 Кадр/с
Аудио 1: AC3, 6 ch, 448 Кбит/с | RUS
Аудио 2: E-AC3, 6 ch, 448 Кбит/с | RUS
Аудио 3: AC3, 6 ch, 640 Кбит/с | FRE
Субтитры: Английские, французские

MediaInfo
Format : Matroska
Format version : Version 4
File size : 7.09 GiB
Duration : 2 h 9 min
Overall bit rate : 7 830 kb/s
Movie name : Chernyiy.yaschik.2021.BDRip.720p.ELEKTRI4KA.UNIONGANG.
Encoded date : UTC 2022-02-02 22:32:51
Writing application : mkvmerge v8.3.0 ('Over the Horizon') 32bit
Writing library : libebml v1.3.1 + libmatroska v1.4.2

Video
ID : 1
Format : AVC
Format/Info : Advanced Video Codec
Format profile : [email protected]
Format settings : CABAC / 12 Ref Frames
Format settings, CABAC : Yes
Format settings, Reference frames : 12 frames
Codec ID : V_MPEG4/ISO/AVC
Duration : 2 h 9 min
Bit rate : 6 291 kb/s
Width : 1 280 pixels
Height : 532 pixels
Display aspect ratio : 2.40:1
Frame rate mode : Constant
Frame rate : 24.000 FPS
Color space : YUV
Chroma subsampling : 4:2:0
Bit depth : 8 bits
Scan type : Progressive
Bits/(Pixel*Frame) : 0.385
Stream size : 5.70 GiB (80%)
Writing library : x264 core 164 r3075+55M 97d28bb t_mod_New [(8 & 10)[email protected] X86_64]
Encoding settings : cabac=1 / ref=12 / deblock=1:-3:-3 / analyse=0x3:0x133 / me=umh / subme=10 / psy=1 / fade_compensate=0.00 / psy_rd=0.97:0.00 / mixed_ref=1 / me_range=32 / chroma_me=1 / trellis=2 / 8x8dct=1 / cqm=0 / deadzone=21,11 / fast_pskip=0 / chroma_qp_offset=-2 / threads=17 / lookahead_threads=4 / sliced_threads=0 / nr=0 / decimate=0 / interlaced=0 / bluray_compat=0 / constrained_intra=0 / fgo=0 / bframes=11 / b_pyramid=2 / b_adapt=2 / b_bias=0 / direct=3 / weightb=1 / open_gop=0 / weightp=2 / keyint=240 / keyint_min=24 / scenecut=40 / intra_refresh=0 / rc_lookahead=60 / rc=crf / mbtree=0 / crf=14.1000 / qcomp=0.65 / qpmin=0:0:0 / qpmax=69:69:69 / qpstep=4 / vbv_maxrate=62500 / vbv_bufsize=78125 / crf_max=0.0 / nal_hrd=none / filler=0 / ip_ratio=1.35 / pb_ratio=1.25 / aq=3:0.85 / aq-sensitivity=10.00 / aq-factor=1.00:1.00:1.00 / aq2=0 / aq3=0
Language : French
Default : Yes
Forced : No
Color range : Limited
Color primaries : BT.709
Transfer characteristics : BT.709
Matrix coefficients : BT.709

Audio #1
ID : 2
Format : AC-3
Format/Info : Audio Coding 3
Commercial name : Dolby Digital
Codec ID : A_AC3
Duration : 2 h 9 min
Bit rate mode : Constant
Bit rate : 448 kb/s
Channel(s) : 6 channels
Channel layout : L R C LFE Ls Rs
Sampling rate : 48.0 kHz
Frame rate : 31.250 FPS (1536 SPF)
Compression mode : Lossy
Stream size : 416 MiB (6%)
Title : DUB EAC3 (KinoPoisk HD)
Language : Russian
Service kind : Complete Main
Default : Yes
Forced : Yes

Audio #2
ID : 3
Format : E-AC-3
Format/Info : Enhanced AC-3
Commercial name : Dolby Digital Plus
Codec ID : A_EAC3
Duration : 2 h 9 min
Bit rate mode : Constant
Bit rate : 448 kb/s
Channel(s) : 6 channels
Channel layout : L R C LFE Ls Rs
Sampling rate : 48.0 kHz
Frame rate : 31.250 FPS (1536 SPF)
Compression mode : Lossy
Stream size : 416 MiB (6%)
Title : DUB EAC3 (KinoPoisk HD)
Language : Russian
Service kind : Complete Main
Default : No
Forced : No

Audio #3
ID : 4
Format : AC-3
Format/Info : Audio Coding 3
Commercial name : Dolby Digital
Codec ID : A_AC3
Duration : 2 h 9 min
Bit rate mode : Constant
Bit rate : 640 kb/s
Channel(s) : 6 channels
Channel layout : L R C LFE Ls Rs
Sampling rate : 48.0 kHz
Frame rate : 31.250 FPS (1536 SPF)
Compression mode : Lossy
Stream size : 594 MiB (8%)
Title : Original
Language : French
Service kind : Complete Main
Default : No
Forced : No

Text #1
ID : 5
Format : UTF-8
Codec ID : S_TEXT/UTF8
Codec ID/Info : UTF-8 Plain Text
Duration : 2 h 9 min
Bit rate : 45 b/s
Count of elements : 1475
Stream size : 43.3 KiB (0%)
Title : full
Language : English
Default : No
Forced : No

Text #2
ID : 6
Format : UTF-8
Codec ID : S_TEXT/UTF8
Codec ID/Info : UTF-8 Plain Text
Duration : 2 h 9 min
Bit rate : 47 b/s
Count of elements : 1475
Stream size : 44.6 KiB (0%)
Title : full
Language : French
Default : No
Forced : No

Menu
00:00:00.000 : en:Chapter 01
00:08:26.083 : en:Chapter 02
00:19:20.542 : en:Chapter 03
00:28:55.000 : en:Chapter 04
00:39:09.000 : en:Chapter 05
00:49:04.958 : en:Chapter 06
00:59:41.000 : en:Chapter 07
01:13:12.500 : en:Chapter 08
01:19:47.500 : en:Chapter 09
01:31:26.833 : en:Chapter 10
01:40:16.750 : en:Chapter 11
01:48:49.667 : en:Chapter 12
РаздающийПоследний раз был здесь 4 месяца 3 дня 23 часа 24 минуты  назад
Размер7.09 GB (7,617,893,421 байт)
Добавлен3 февраля 2022 в 09:47:01
Проголосуй за трекер

<< Предыдущий релиз  [из этой категории]   |   [из этой категории]  Следующий релиз >>
Все релизы   |   Все релизы этой категории
:: Список комментариев
Страницы:  1 
:: Не в сети -AntoxA- :: Супер Аплоадер :: upload 545.50 GB :: download 0.00 kB :: Inf. :: Оценить комментарий:
Раздача обновлена - Перевод: Дублированный | КиноПоиск HD
Комментарий добавлен: 3 февраля 2022 в 09:46:53

Всего 1 на 1 страницах по 10 на каждой странице.

Страницы:  1 







Обратная связь: [email protected]
© 2022 BigFANGroup 4.1. Powered by Kinokpk.com releaser 2.70 © 2008-2022.
Торрент трекер, форум трекера, скачать бесплатно фильмы, игры, видео, картинки и многое другое.