Главная Торренты Топ Раздач Форум Правила Чат XXX

Привет, гость

Логин:

Пароль:



Регистрация Восстановление пароля

 Торренты



:: Детали релиза
Скачать
Скачать V_korolevskom_stile__The_Royal_Treatment_2022_W.torrent
Название
Скачать
Мультитрекерная раздача

Золотой торрент В королевском стиле / The Royal Treatment (2022) WEB-DL 720p | D | Netflix

ТипМелодрама
Хэш релиза4ef2cb8b47b6c792400491fbd5976a1894cf5dd6
Проверено
Этот торрент проверен Администрацией.
Изображение для В королевском стиле / The Royal Treatment (2022) WEB-DL 720p | D | Netflix (кликните для просмотра полного изображения)
Скриншоты, кадры (Посмотреть)
Изображение для В королевском стиле / The Royal Treatment (2022) WEB-DL 720p | D | Netflix (кликните для просмотра полного изображения)
Изображение для В королевском стиле / The Royal Treatment (2022) WEB-DL 720p | D | Netflix (кликните для просмотра полного изображения)
Изображение для В королевском стиле / The Royal Treatment (2022) WEB-DL 720p | D | Netflix (кликните для просмотра полного изображения)
Изображение для В королевском стиле / The Royal Treatment (2022) WEB-DL 720p | D | Netflix (кликните для просмотра полного изображения)
Информация о фильме
Название: В королевском стиле
Оригинальное название: The Royal Treatment
Год выхода: 2022
Жанр: Мелодрама, комедия, семейный
Режиссер: Рик Джейкобсон
В ролях: Лора Марано, Мена Массуд, Челси Престон-Крейфорд, Жак Дрю, Камерон Родс, Джен Браун, Аманда Биллинг, Тейлор Барретт, Джеймс Гэйлин, Джей Саймон

Описание: Нью-йоркский парикмахер Изабелла 'Иззи' получает возможность поработать на свадьбе прекрасного принца, но герои влюбляются друг в друга. Что же они выберут: любовь или долг?

image

Выпущено: Новая Зеландия, США / Focus Features International (FFI), Netflix
Продолжительность: 01:37:30
Перевод: Дублированный | Netflix

Файл
Формат: MKV
Качество: WEB-DL 1080p
Видео: H.264, 1280x582, 24fps, 3154 Kb/s
Аудио 1: 48KHz, AC3, 6 ch, 640 Kb/s | Русский | Дублированный | Netflix
Аудио 2: 48KHz, E-AC3, 6 ch, 640 Kb/s | Украинский | Дублированный | Netflix
Аудио 3: 48KHz, E-AC-3 JOC, 6 ch, 768 Kb/s | Английский
Субтитры: Русские (Forced, full), украинские (Forced, full), английские

MediaInfo
Формат : Matroska
Версия формата : Version 4
Размер файла : 3,54 Гбайт
Продолжительность : 1 ч. 37 м.
Режим общего битрейта : Переменный
Общий поток : 5 204 Кбит/сек
Дата кодирования : UTC 2022-01-23 08:43:03
Программа кодирования : mkvmerge v64.0.0 ('Willows') 64-bit
Библиотека кодирования : libebml v1.4.2 + libmatroska v1.6.4

Видео
Идентификатор : 1
Формат : AVC
Формат/Информация : Advanced Video Codec
Профиль формата : [email protected]
Настройки формата : CABAC / 2 Ref Frames
Параметр CABAC формата : Да
Параметр RefFrames формата : 2 кадра
Идентификатор кодека : V_MPEG4/ISO/AVC
Продолжительность : 1 ч. 37 м.
Вид битрейта : Переменный
Битрейт : 3 154 Кбит/сек
Максимальный битрейт : 9 660 Кбит/сек
Ширина : 1 280 пикселей
Высота : 582 пикселя
Соотношение сторон : 2,2:1
Режим частоты кадров : Постоянный
Частота кадров : 24,000 кадра/сек
Цветовое пространство : YUV
Субдискретизация насыщенности : 4:2:0
Битовая глубина : 8 бит
Тип развёртки : Прогрессивная
Бит/(Пиксели*Кадры) : 0.176
Размер потока : 2,15 Гбайт (61%)
Заголовок : New Zealand, USA (Focus Features International (FFI), Netflix)
Язык : English
Default : Да
Forced : Нет
Цветовой диапазон : Limited
Основные цвета : BT.709
Характеристики трансфера : BT.709
Коэффициенты матрицы : BT.709

Аудио #1
Идентификатор : 2
Формат : AC-3
Формат/Информация : Audio Coding 3
Коммерческое название : Dolby Digital
Идентификатор кодека : A_AC3
Продолжительность : 1 ч. 37 м.
Вид битрейта : Постоянный
Битрейт : 640 Кбит/сек
Каналы : 6 каналов
Channel layout : L R C LFE Ls Rs
Частота : 48,0 КГц
Частота кадров : 31,250 кадров/сек (1536 SPF)
Метод сжатия : С потерями
Размер потока : 446 Мбайт (12%)
Заголовок : Dub (Netflix)
Язык : Russian
Service kind : Complete Main
Default : Нет
Forced : Нет

Аудио #2
Идентификатор : 3
Формат : E-AC-3
Формат/Информация : Enhanced AC-3
Коммерческое название : Dolby Digital Plus
Идентификатор кодека : A_EAC3
Продолжительность : 1 ч. 37 м.
Вид битрейта : Постоянный
Битрейт : 640 Кбит/сек
Каналы : 6 каналов
Channel layout : L R C LFE Ls Rs
Частота : 48,0 КГц
Частота кадров : 31,250 кадров/сек (1536 SPF)
Метод сжатия : С потерями
Размер потока : 446 Мбайт (12%)
Заголовок : Dub (Ukrainian)
Язык : Ukrainian
Service kind : Complete Main
Default : Нет
Forced : Нет

Аудио #3
Идентификатор : 4
Формат : E-AC-3 JOC
Формат/Информация : Enhanced AC-3 with Joint Object Coding
Коммерческое название : Dolby Digital Plus with Dolby Atmos
Идентификатор кодека : A_EAC3
Продолжительность : 1 ч. 37 м.
Вид битрейта : Постоянный
Битрейт : 768 Кбит/сек
Каналы : 6 каналов
Channel layout : L R C LFE Ls Rs
Частота : 48,0 КГц
Частота кадров : 31,250 кадров/сек (1536 SPF)
Метод сжатия : С потерями
Размер потока : 536 Мбайт (15%)
Заголовок : Original (English)
Язык : English
Service kind : Complete Main
Default : Нет
Forced : Нет
Complexity index : 16
Number of dynamic objects : 15
Bed channel count : 1 канал
Bed channel configuration : LFE

Текст #1
Идентификатор : 5
Формат : UTF-8
Идентификатор кодека : S_TEXT/UTF8
Идентификатор кодека/Информация : UTF-8 Plain Text
Продолжительность : 1 ч. 34 м.
Битрейт : 2 бит/сек
Count of elements : 38
Размер потока : 1,72 Кбайт (0%)
Заголовок : Forced
Язык : Russian
Default : Да
Forced : Да

Текст #2
Идентификатор : 6
Формат : UTF-8
Идентификатор кодека : S_TEXT/UTF8
Идентификатор кодека/Информация : UTF-8 Plain Text
Продолжительность : 1 ч. 34 м.
Битрейт : 98 бит/сек
Count of elements : 1411
Размер потока : 68,3 Кбайт (0%)
Заголовок : Full
Язык : Russian
Default : Нет
Forced : Нет

Текст #3
Идентификатор : 7
Формат : UTF-8
Идентификатор кодека : S_TEXT/UTF8
Идентификатор кодека/Информация : UTF-8 Plain Text
Продолжительность : 1 ч. 34 м.
Битрейт : 2 бит/сек
Count of elements : 40
Размер потока : 1,85 Кбайт (0%)
Заголовок : Forced
Язык : Ukrainian
Default : Нет
Forced : Нет

Текст #4
Идентификатор : 8
Формат : UTF-8
Идентификатор кодека : S_TEXT/UTF8
Идентификатор кодека/Информация : UTF-8 Plain Text
Продолжительность : 1 ч. 34 м.
Битрейт : 100 бит/сек
Count of elements : 1425
Размер потока : 70,0 Кбайт (0%)
Заголовок : Full
Язык : Ukrainian
Default : Нет
Forced : Нет

Текст #5
Идентификатор : 9
Формат : UTF-8
Идентификатор кодека : S_TEXT/UTF8
Идентификатор кодека/Информация : UTF-8 Plain Text
Продолжительность : 1 ч. 25 м.
Битрейт : 0 бит/сек
Count of elements : 22
Размер потока : 609 байт (0%)
Заголовок : Forced
Язык : English
Default : Нет
Forced : Нет

Текст #6
Идентификатор : 10
Формат : UTF-8
Идентификатор кодека : S_TEXT/UTF8
Идентификатор кодека/Информация : UTF-8 Plain Text
Продолжительность : 1 ч. 28 м.
Битрейт : 72 бит/сек
Count of elements : 1453
Размер потока : 46,8 Кбайт (0%)
Заголовок : Full
Язык : English
Default : Нет
Forced : Нет

Текст #7
Идентификатор : 11
Формат : UTF-8
Идентификатор кодека : S_TEXT/UTF8
Идентификатор кодека/Информация : UTF-8 Plain Text
Продолжительность : 1 ч. 32 м.
Битрейт : 82 бит/сек
Count of elements : 1677
Размер потока : 55,9 Кбайт (0%)
Заголовок : SDH
Язык : English
Default : Нет
Forced : Нет
РаздающийПоследний раз был здесь 4 месяца 3 дня 17 часов 44 минуты 57 секунд  назад
Размер3.54 GB (3,806,338,990 байт)
Добавлен29 января 2022 в 08:57:25
Проголосуй за трекер

<< Предыдущий релиз  [из этой категории]   |   [из этой категории]  Следующий релиз >>
Все релизы   |   Все релизы этой категории
:: Список комментариев http://bigfangroup.org
Комментариев нет. Желаете добавить?








Обратная связь: [email protected]
© 2022 BigFANGroup 4.1. Powered by Kinokpk.com releaser 2.70 © 2008-2022.
Торрент трекер, форум трекера, скачать бесплатно фильмы, игры, видео, картинки и многое другое.