Главная Торренты Топ Раздач Форум Правила Чат XXX

Привет, гость

Логин:

Пароль:



Регистрация Восстановление пароля

 Торренты



:: Детали релиза
Скачать
Скачать Lamb.2021.AMZN.WEB-DL.1080p.mkv.torrent
Название
Скачать
Мультитрекерная раздача

Золотой торрент Агнец / Lamb (2021) WEB-DL 1080p | P, P2 | iTunes

ТипУжасы
Хэш релизаc8ef2f199bbeee7f97ca04f1dc38ab8a715995ed
Проверено
Этот торрент проверен Администрацией.
Изображение для Агнец / Lamb (2021) WEB-DL 1080p | P, P2 | iTunes (кликните для просмотра полного изображения)
Скриншоты, кадры (Посмотреть)
Изображение для Агнец / Lamb (2021) WEB-DL 1080p | P, P2 | iTunes (кликните для просмотра полного изображения)
Изображение для Агнец / Lamb (2021) WEB-DL 1080p | P, P2 | iTunes (кликните для просмотра полного изображения)
Изображение для Агнец / Lamb (2021) WEB-DL 1080p | P, P2 | iTunes (кликните для просмотра полного изображения)
Изображение для Агнец / Lamb (2021) WEB-DL 1080p | P, P2 | iTunes (кликните для просмотра полного изображения)
Информация о фильме
Название: Агнец
Оригинальное название: Lamb
Год выхода: 2021
Жанр: Ужасы, фэнтези, драма
Режиссер: Вальдимар Йоханнссон
В ролях: Нуми Рапас, Хильмир Снайр Гвюднасон, Бьёдн Хлинур Харальдссон, Ингвар Эггерт Сигюрдссон, Эстер Биби, Аднтрудюр Дёгг Сигюрдардоуттир, Теодор Инги Олафссон, Сигурдур Эльвар, Гуннар Де Карлссон

Описание: Бездетная пара фермеров проживает в туманной исландской глуши. Однажды одна из их овец приносит загадочное существо, которое супруги забирают в дом и решают растить как собственного ребёнка.

image

Выпущено: Исландия, Швеция, Польша / Black Spark Film & TV, Chimney Poland, Chimney Sweden
Продолжительность: 01:46:27
Перевод: Профессиональный многоголосый | iTunes

Файл
Формат: MKV
Качество: WEB-DL 1080p
Видео: MPEG-4 AVC, 1920x800 (2.40:1), 23.976 fps, 8722 kbps
Аудио 1: Russian: 48 kHz, AC3, 3/2 (L,C,R,l,r) + LFE ch, ~384 kbps | MVO, iTunes
Аудио 2: Russian: 48 kHz, AC3, 3/2 (L,C,R,l,r) + LFE ch, ~384 kbps | MVO, Jaskier
Аудио 3: Russian: 48 kHz, AC3, 3/2 (L,C,R,l,r) + LFE ch, ~640 kbps | DVO, ViruseProject
Аудио 4: Icelandic: 48 kHz, E-AC3, 3/2 (L,C,R,l,r) + LFE ch, ~640 kbps | Original
Субтитры: Русские (Full), английские

MediaInfo
Format : Matroska
Format version : Version 4 / Version 2
File size : 8.01 GiB
Duration : 1 h 46 min
Overall bit rate : 10.8 Mb/s
Encoded date : UTC 2021-12-14 01:10:57
Writing application : mkvmerge v7.3.0 ('Nouages') 64bit built on Oct 22 2014 18:53:34
Writing library : libebml v1.3.0 + libmatroska v1.4.1

Video
ID : 1
Format : AVC
Format/Info : Advanced Video Codec
Format profile : [email protected]
Format settings, CABAC : Yes
Format settings, RefFrames : 4 frames
Codec ID : V_MPEG4/ISO/AVC
Duration : 1 h 46 min
Bit rate mode : Constant
Bit rate : 8 722 kb/s
Nominal bit rate : 10 000 kb/s
Width : 1 920 pixels
Height : 800 pixels
Display aspect ratio : 2.40:1
Frame rate mode : Constant
Frame rate : 23.976 (24000/1001) FPS
Color space : YUV
Chroma subsampling : 4:2:0
Bit depth : 8 bits
Scan type : Progressive
Bits/(Pixel*Frame) : 0.237
Stream size : 6.49 GiB (81%)
Language : English
Default : Yes
Forced : No
Color range : Limited
Color primaries : BT.709
Transfer characteristics : BT.709
Matrix coefficients : BT.709

Audio #1
ID : 2
Format : AC-3
Format/Info : Audio Coding 3
Format settings, Endianness : Big
Codec ID : A_AC3
Duration : 1 h 46 min
Bit rate mode : Constant
Bit rate : 384 kb/s
Channel(s) : 6 channels
Channel positions : Front: L C R, Side: L R, LFE
Sampling rate : 48.0 kHz
Frame rate : 31.250 FPS (1536 SPF)
Bit depth : 16 bits
Compression mode : Lossy
Stream size : 292 MiB (4%)
Title : MVO (iTunes)
Language : Russian
Service kind : Complete Main
Default : Yes
Forced : No

Audio #2
ID : 3
Format : AC-3
Format/Info : Audio Coding 3
Format settings, Endianness : Big
Codec ID : A_AC3
Duration : 1 h 46 min
Bit rate mode : Constant
Bit rate : 384 kb/s
Channel(s) : 6 channels
Channel positions : Front: L C R, Side: L R, LFE
Sampling rate : 48.0 kHz
Frame rate : 31.250 FPS (1536 SPF)
Bit depth : 16 bits
Compression mode : Lossy
Stream size : 292 MiB (4%)
Title : MVO (Jaskier)
Language : Russian
Service kind : Complete Main
Default : No
Forced : No

Audio #3
ID : 4
Format : AC-3
Format/Info : Audio Coding 3
Format settings, Endianness : Big
Codec ID : A_AC3
Duration : 1 h 46 min
Bit rate mode : Constant
Bit rate : 640 kb/s
Channel(s) : 6 channels
Channel positions : Front: L C R, Side: L R, LFE
Sampling rate : 48.0 kHz
Frame rate : 31.250 FPS (1536 SPF)
Bit depth : 16 bits
Compression mode : Lossy
Stream size : 487 MiB (6%)
Title : DVO (ViruseProject)
Language : Russian
Service kind : Complete Main
Default : No
Forced : No

Audio #4
ID : 5
Format : E-AC-3
Format/Info : Enhanced Audio Coding 3
Format settings, Endianness : Big
Codec ID : A_EAC3
Duration : 1 h 46 min
Bit rate mode : Constant
Bit rate : 640 kb/s
Channel(s) : 6 channels
Channel positions : Front: L C R, Side: L R, LFE
Sampling rate : 48.0 kHz
Frame rate : 187.500 FPS (256 SPF)
Compression mode : Lossy
Stream size : 487 MiB (6%)
Title : Original
Language : Icelandic
Service kind : Complete Main
Default : No
Forced : No

Text #1
ID : 6
Format : UTF-8
Codec ID : S_TEXT/UTF8
Codec ID/Info : UTF-8 Plain Text
Duration : 1 h 35 min
Bit rate : 17 b/s
Count of elements : 271
Stream size : 12.3 KiB (0%)
Title : Full
Language : Russian
Default : No
Forced : No

Text #2
ID : 7
Format : UTF-8
Codec ID : S_TEXT/UTF8
Codec ID/Info : UTF-8 Plain Text
Duration : 1 h 38 min
Bit rate : 10 b/s
Count of elements : 305
Stream size : 7.67 KiB (0%)
Title : Full
Language : English
Default : No
Forced : No
РаздающийПоследний раз был здесь 4 месяца 3 дня 16 часов 18 минут 4 секунды  назад
Размер8.01 GB (8,601,721,700 байт)
Добавлен1 февраля 2022 в 07:41:56
Проголосуй за трекер

<< Предыдущий релиз  [из этой категории]   |   [из этой категории]  Следующий релиз >>
Все релизы   |   Все релизы этой категории
:: Список комментариев http://bigfangroup.org
Комментариев нет. Желаете добавить?








Обратная связь: [email protected]
© 2022 BigFANGroup 4.1. Powered by Kinokpk.com releaser 2.70 © 2008-2022.
Торрент трекер, форум трекера, скачать бесплатно фильмы, игры, видео, картинки и многое другое.